#TITLE:Gekkochou;
#SUBTITLE:;
#ARTIST:Asaki;
#TITLETRANSLIT:;
#SUBTITLETRANSLIT:;
#ARTISTTRANSLIT:;
#CREDIT:;
#BANNER:Gekkochou-BNR.PNG;
#BACKGROUND:Gekkochou-BG.PNG;
#LYRICSPATH:;
#CDTITLE:;
#MUSIC:05.Gekkocho.mp3;
#OFFSET:-3.220;
#SAMPLESTART:27.523;
#SAMPLELENGTH:12.000;
#SELECTABLE:YES;
#BPMS:0.000=109.000,16.000=218.000;
#STOPS:;
#BGCHANGES:;
// cache tags:
#FIRSTBEAT:16.000;
#LASTBEAT:307.000;
#SONGFILENAME:Songs/Music V.I.P ^_^/Gekkochou [Eggman]/Gekkochou.sm;
#HASMUSIC:1;
#HASBANNER:1;
#MUSICLENGTH:97.227;
// end cache tags

//---------------dance-single - ----------------
#NOTES:
     dance-single:
     :
     Hard:
     10:
     1.000,1.000,1.000,0.000,0.149,523.000,336.000,0.000,0.000,0.000:
0000
0000
0000
0000
,
0000
0000
0000
0000
,
0000
0000
0000
0000
,
0000
0000
0000
0000
,
1001
0000
0101
0100
0110
1010
1100
0110
,
0010
0011
1001
1000
1100
0110
0000
0011
,
0000
1001
1100
0100
0110
0011
1001
1100
,
0100
0110
0011
0001
1001
1010
0000
0101
,
0000
0110
1010
0110
0100
0101
1001
1100
,
0000
0011
1100
0011
0001
0101
0110
1010
,
0000
1100
0110
0110
1100
1010
0110
0101
,
0000
0000
0001
0000
0110
0000
0101
0000
1010
0000
0100
0010
1000
0100
0010
0001
,
0110
0001
0110
0001
1001
1010
1100
0011
,
0000
1100
0011
0100
1001
1010
0110
0100
,
0101
0001
1100
0100
0110
1100
1001
0101
,
0000
1010
0101
0010
1010
1001
0101
0100
,
0110
0001
0110
0001
1100
0011
1100
1001
,
0000
1010
0101
0100
0110
1010
1100
0110
,
0011
1100
0110
0011
1001
1010
0110
0101
,
0100
0000
0110
0000
1010
0000
0110
0000
0101
0000
0010
1000
0100
0010
0001
0100
,
1010
1010
0101
1001
1100
0100
0110
1100
,
1000
1001
0101
0110
1010
1010
1000
0100
,
0010
0011
1001
1100
1100
0011
0110
0011
,
0001
1001
1100
0110
0011
0101
0010
1000
,
0101
1010
0110
0101
0101
1010
0000
1100
,
0000
0011
0110
0100
1000
1001
0001
0100
,
1010
1001
1100
0110
0011
1100
0000
0011
,
0100
0000
1100
0000
0110
0000
0011
0000
1001
0000
0000
1001
0000
1001
0000
0000
,
1100
0000
0011
1001
,
1100
0000
1000
0100
0010
0000
0011
0001
,
1001
0000
0000
1010
0000
0000
0101
0000
,
1001
0000
0001
0110
0001
0001
1100
0010
,
0011
0000
0000
1100
0000
0000
0110
0000
,
0011
0000
0000
1100
0100
0100
0011
0001
,
0101
0100
0100
1010
0100
0100
1001
0001
,
0110
0001
0110
0001
1010
0100
1010
0101
,
0000
0101
0101
0100
0101
1010
0000
1001
,
0000
1100
1100
1100
1010
0101
0000
1001
,
0000
1100
1010
1001
1100
0011
0000
0101
,
0000
0000
1010
0000
1010
0000
1010
0000
0100
0001
1000
0000
1001
0000
0110
0000
,
1001
1100
1010
0011
0001
0101
0100
1010
,
0101
0100
1010
1000
1100
0110
0010
0011
,
1100
0000
0110
0000
1000
0000
0101
0000
1010
0000
1000
0000
0011
0000
0100
1000
,
0010
0000
0100
0001
0110
0000
0001
0000
1000
0010
1000
0010
0100
0000
0001
1000
,
0011
0000
1100
0100
0010
0011
0000
1001
,
0000
1001
0101
0000
1010
1000
1100
0110
,
0000
0010
0011
0100
1000
1001
0001
0101
,
0100
1010
1100
0100
0110
0010
0001
0110
,
0000
0001
0110
0001
1000
1010
0000
0101
,
0000
0010
1100
0010
1100
1010
0010
0110
,
0000
0100
1001
0001
0101
1010
0000
1100
,
0000
0000
0010
0001
0110
0000
0001
0000
0110
0000
1001
0000
0000
0000
1001
0000
,
0000
1100
0110
0000
0011
0100
1100
1001
,
0001
0101
1010
0100
1010
0100
0101
1010
,
0000
1001
1100
0110
0011
1100
0110
0011
,
0000
1001
0110
1001
0000
0101
0000
1010
,
0000
1100
0011
0100
1001
0001
0101
1010
,
0000
1010
1100
0100
0110
0100
1100
1001
,
0000
0000
0101
0000
0110
0000
1000
0010
0100
0000
0101
0000
0010
1000
0100
0010
,
0001
0000
1000
0001
1000
0010
0100
0000
0101
0000
1010
0000
0100
0010
1000
0100
,
0011
0100
1100
1000
0010
1010
0000
0101
,
0000
1001
0110
0101
1010
1100
0100
0110
,
0000
0001
1100
0100
0110
0010
0011
1100
,
0000
1001
1010
1100
0100
0110
0010
0011
,
0000
0000
1000
0000
1010
0010
0100
0101
,
0000
0010
1000
0100
1000
1001
0000
0101
,
0000
1010
0101
1001
1000
1100
0110
0011
,
0100
1100
1010
0110
0101
1001
0000
1100
,
0000
0100
0110
0000
0010
0011
1100
0110
,
0000
0010
1001
1000
1010
0110
0101
1001
,
1100
1000
1010
1000
1001
0100
0011
1100
,
0000
0011
1100
0011
0000
1001
0000
1010
,
0000
0000
0100
0000
0101
0010
0000
0000
1010
0000
1001
0000
1000
0000
1100
0000
,
0000
0000
0010
0000
0011
0000
0100
0000
1001
0010
0000
0000
0101
0000
1010
0000
,
1000
0000
0001
0000
1001
0000
1000
0100
0010
0000
0001
1000
0010
0000
1010
0000
,
0100
0000
0010
0100
0001
0000
0110
0000
0001
1000
0100
0010
0001
0000
0110
0000
,
1001
0000
0000
0100
0000
0010
0001
0000
;
